2011-05-23 Los Angeles, CA

Notes from the Taper

View
The Chris Robinson Brotherhood
The Echoplex (1154 Glendale Boulevard, Los Angeles, CA 90026)
Monday, May 23, 2011



AKG c422 > s42 > Grace Design Lunatec V2 > Sonic AD2K+ > Tascam HD-P2

Location : ~5' left of center, ~20' back, ~8' superclamp (knob)/extension pole + offset arm/nanoclamp
Mic Config : Blumlein
Record Format : 24-bit, 96 kHz
Transfer : CF card > USB 2.0 card reader > PC
Edit, Tracking : normalize to 95%, fades, invert polarity (Samplitude)
Dither : POW-r #3 (Samplitude)
Resample : Ultra High 1 (Samplitude)
Final Format : 16-bit, 44.1 kHz
Verify : shntool.exe
Tagging : Live Show Tagger (foobar2000)



01. - set one -
02. 40 Days
03. Appaloosa
04. Poor Elijah/Tribute to Johnson (medley)
05. Star or Stone
06. Driving Wheel
07. They Love Each Other
08. Tomorrow Blues
09. Rosalee
10. - set two -
11. Tulsa Yesterday
12. Tumbleweed in Eden
13. Never Been to Spain
14. If Your Wheel Don't Roll
15. Reflections on a Broken Mirror
16. Vibration and Light Suite
17. Ride
18. I Ain't Hiding

19. Blue Suede Shoes


length expanded size cdr WAVE problems fmt ratio filename
0:38.64 6853772 B --- -- ----- wav 1.0000 crb2011-05-23c422_01.wav
9:18.42 98530028 B --- -- ----- wav 1.0000 crb2011-05-23c422_02.wav
6:43.11 71115116 B --- -- ----- wav 1.0000 crb2011-05-23c422_03.wav
13:13.67 140042828 B --- -- ----- wav 1.0000 crb2011-05-23c422_04.wav
10:37.33 112444460 B --- -- ----- wav 1.0000 crb2011-05-23c422_05.wav
9:44.20 103064684 B --- -- ----- wav 1.0000 crb2011-05-23c422_06.wav
8:12.44 86892332 B --- -- ----- wav 1.0000 crb2011-05-23c422_07.wav
8:10.22 86487788 B --- -- ----- wav 1.0000 crb2011-05-23c422_08.wav
9:43.03 102848300 B --- -- ----- wav 1.0000 crb2011-05-23c422_09.wav
0:49.44 8747132 B --- -- ----- wav 1.0000 crb2011-05-23c422_10.wav
11:09.03 118018700 B --- -- ----- wav 1.0000 crb2011-05-23c422_11.wav
8:42.58 92217260 B --- -- ----- wav 1.0000 crb2011-05-23c422_12.wav
6:49.41 72244076 B --- -- ----- wav 1.0000 crb2011-05-23c422_13.wav
6:37.48 70143740 B --- -- ----- wav 1.0000 crb2011-05-23c422_14.wav
7:32.31 79805756 B --- -- ----- wav 1.0000 crb2011-05-23c422_15.wav
10:56.08 115737260 B --- -- ----- wav 1.0000 crb2011-05-23c422_16.wav
12:50.57 135962108 B --- -- ----- wav 1.0000 crb2011-05-23c422_17.wav
10:34.48 111950540 B --- -- ----- wav 1.0000 crb2011-05-23c422_18.wav
10:34.10 111861164 B --- -- ----- wav 1.0000 crb2011-05-23c422_19.wav
162:58.54 1724967044 B 1.0000 (19 files)


************************************************************************
* *
* ### FREE ### *
* *
* The musicians allowed this recording for FREE. PLEASE... *
* *
* - Only share this recording with others for FREE. *
* - Do NOT sell or trade this recording for profit of any kind. *
* *
* ### SUPPORT MUSICIANS ### *
* *
* Help ensure live recordings remain easily accessible and FREE by *
* supporting the musicians: *
* *
* - attend their live shows *
* - purchase their dry goods *
* - buy their studio releases *
* *
* For more information on the musicians, their tours, and studio *
* recordings: *
* *
* - http://www.chrisrobinsonbrotherhood.com/ *
* *
************************************************************************



++ recorded, transferred and seeded to bt.etree by macdaddy (May 24, 2011)

Hide

Download

Download this show and more at:
My Microsoft OneDrive folder