2015-10-03 Madison, WI

Notes from the Taper

View
Chris Robinson Brotherhood
October 3rd, 2015
Majestic Theater
Madison, WI

Source: AKG 522ms>Busman DR70
Transfer: SD>Picklemacmini> Audacity 2.0.1> Xact 2.36 > FLAC
Recorded and Transferred:Jason Picklemic Loomis picklemic 2 @ gmail

Set 1
01. tuning
02. Shake, Rattle, and Roll
03. Roane County Banjo
04. Tornado
05. Star or Stone
06. Meanwhile in the Gods...
07. Jam>
08. Tulsa Yesterday
09. Train Robbers
10. 40 Days

Set 2
01. tuning
02. Saturday Night in Oak Grove, Louisiana
03. Tomorrow Blues
04. Beggar's Moon
05. Clear Blue Sky & The Good Doctor
06. Hard to Handle
07. Vibration & Light Suite
08. I Ain't Hiding
09. Rosalee
E)
10. Mr. Charlie

length expanded size cdr WAVE problems fmt ratio filename
1:34.899 27331004 B cxx -- ---xx flac 0.6511 crb2015-10-03s1t01.flac
6:55.211 119580782 B cxx -- ---xx flac 0.7185 crb2015-10-03s1t02.flac
8:17.301 143222750 B cxx -- ---xx flac 0.6945 crb2015-10-03s1t03.flac
7:47.962 134772962 B cxx -- ---xx flac 0.6750 crb2015-10-03s1t04.flac
10:53.692 188263370 B cxx -- ---xx flac 0.6773 crb2015-10-03s1t05.flac
7:02.784 121761776 B cxx -- ---xx flac 0.6905 crb2015-10-03s1t06.flac
6:20.895 109697768 B cxx -- ---xx flac 0.6980 crb2015-10-03s1t07.flac
13:35.795 234949094 B cxx -- ---xx flac 0.6865 crb2015-10-03s1t08.flac
9:06.460 157380506 B cxx -- ---xx flac 0.6766 crb2015-10-03s1t09.flac
8:50.449 152769272 B cxx -- ---xx flac 0.7214 crb2015-10-03s1t10.flac
0:44.553 12831242 B cxx -- ---xx flac 0.6215 crb2015-10-03s2t01.flac
4:10.408 72117482 B cxx -- ---xx flac 0.7086 crb2015-10-03s2t02.flac
8:22.337 144673154 B cxx -- ---xx flac 0.7046 crb2015-10-03s2t03.flac
9:01.349 155908694 B cxx -- ---xx flac 0.7014 crb2015-10-03s2t04.flac
8:21.907 144549140 B cxx -- ---xx flac 0.6860 crb2015-10-03s2t05.flac
7:16.455 125699222 B cxx -- ---xx flac 0.7182 crb2015-10-03s2t06.flac
16:05.231 277986710 B cxx -- ---xx flac 0.7036 crb2015-10-03s2t07.flac
7:56.760 137306804 B cxx -- ---xx flac 0.7116 crb2015-10-03s2t08.flac
12:45.864 220568864 B cxx -- ---xx flac 0.7118 crb2015-10-03s2t09.flac
5:15.974 91000496 B cxx -- ---xx flac 0.7102 crb2015-10-03s2t10.flac
160:26.285 2772371092 B 0.6980 (20 files)

Hide

Download

Download this show and more at:
My Microsoft OneDrive folder