2015-07-17 Lowell, MA

Notes from the Taper

View
Chris Robinson Brotherhood
2015-07-17
Boarding House Park
Lowell Summer Music Series
Lowell, MA

mk41vs were DIN slightly left of center by the sbd

Schoeps mk41v>kc5>CMC6>Sonosax SX-R4 (24bit/96khz)

WAV>USB>Macbook Pro>Wave Editor(tracking,fades,resample(izotope)/dither(mbit+)to 16 bit/44.1k)>XAct(FLAC 8,ffp,fix sbe)

Recorded and transferred by Andy Murray

Set 1

01 There's A Good Rockin' Tonight
02 Tomorrow Blues
03 Roan Country Banjo
04 Tornado
05 Oak Apple Day
06 Star Or Stone
07 Shore Power
08 Rosalee

Set 2

01 Love’s Made A Fool Of You
02 Little Lizzie Mae -->
03 Can You Hear Me
04 Badlands He We Come -->
05 Meanwhile In The Gods… -->
06 Tuff Mama
07 Ride
08 Appaloosa
09 Got Love
10 encore break

Encore :

11 Catfish John

Chris Robinson (vox / guitar)
Neal Casal (guitar / vox)
Adam Macdougall (keys)
Tony Leone (drums)
Mark Dutton (bass)

http://chrisrobinsonbrotherhood.com/

;flac fingerprints generated by xACT 2.36 on 2015-07-18 16:09:55 +0000

crb2015-07-17.mk41v.sxr4.1644.s1t01.flac:1d15fb8022b61fb95006110d1736ee8e
crb2015-07-17.mk41v.sxr4.1644.s1t02.flac:baa19b44c12bcdc87408762a603cddf9
crb2015-07-17.mk41v.sxr4.1644.s1t03.flac:6b03a4a73f0f48c07cf01055675c4da2
crb2015-07-17.mk41v.sxr4.1644.s1t04.flac:8cca88f382040336f1bb30bda25ef4d8
crb2015-07-17.mk41v.sxr4.1644.s1t05.flac:f5909ffb24218c46338e4330c0c08dd1
crb2015-07-17.mk41v.sxr4.1644.s1t06.flac:696037a59025a636a9a2577e6e24d898
crb2015-07-17.mk41v.sxr4.1644.s1t07.flac:0e2954093815aa3278f1c0ca85d43e9f
crb2015-07-17.mk41v.sxr4.1644.s1t08.flac:d98cc2969488dfdbd5d248c70ec8a6c7
crb2015-07-17.mk41v.sxr4.1644.s2t01.flac:4cda5a415867371fca1fda9734d925b4
crb2015-07-17.mk41v.sxr4.1644.s2t02.flac:915c7e2aafe97ca3601a147b55f8ae94
crb2015-07-17.mk41v.sxr4.1644.s2t03.flac:51cf3b5fcd1d465cc79f7ffc77b3c805
crb2015-07-17.mk41v.sxr4.1644.s2t04.flac:e290fc5dc3520d50f24354ba7b2adbd0
crb2015-07-17.mk41v.sxr4.1644.s2t05.flac:3a6dd61d416380bc9a7f5419a1ebcdb2
crb2015-07-17.mk41v.sxr4.1644.s2t06.flac:762d2d787f41ffb64dfad6b25adc7640
crb2015-07-17.mk41v.sxr4.1644.s2t07.flac:8b87a97704d354d39b172cf1d9bd332f
crb2015-07-17.mk41v.sxr4.1644.s2t08.flac:a77f921c939188a5dc913d7ced1e34d4
crb2015-07-17.mk41v.sxr4.1644.s2t09.flac:2af9c3bcd271d5ed7320422c8661a99a
crb2015-07-17.mk41v.sxr4.1644.s2t10.flac:3453ae9a3e0a9ad3b10af8f6d2f216e5
crb2015-07-17.mk41v.sxr4.1644.s2t11.flac:4558d9f99526978fafd7571730f59621

length expanded size cdr WAVE problems fmt ratio filename
5:54.16 62483276 B --- -- ----- wav 1.0000 crb2015-07-17.mk41v.sxr4.1644.s1t01.wav
8:43.09 92278412 B --- -- ----- wav 1.0000 crb2015-07-17.mk41v.sxr4.1644.s1t02.wav
8:05.73 85725740 B --- -- ----- wav 1.0000 crb2015-07-17.mk41v.sxr4.1644.s1t03.wav
7:21.27 77855948 B --- -- ----- wav 1.0000 crb2015-07-17.mk41v.sxr4.1644.s1t04.wav
7:51.33 83162060 B --- -- ----- wav 1.0000 crb2015-07-17.mk41v.sxr4.1644.s1t05.wav
10:18.14 109048172 B --- -- ----- wav 1.0000 crb2015-07-17.mk41v.sxr4.1644.s1t06.wav
7:02.23 74494940 B --- -- ----- wav 1.0000 crb2015-07-17.mk41v.sxr4.1644.s1t07.wav
11:29.28 121605500 B --- -- ----- wav 1.0000 crb2015-07-17.mk41v.sxr4.1644.s1t08.wav
9:19.44 98711132 B --- -- ----- wav 1.0000 crb2015-07-17.mk41v.sxr4.1644.s2t01.wav
9:37.40 101876924 B --- -- ----- wav 1.0000 crb2015-07-17.mk41v.sxr4.1644.s2t02.wav
4:11.74 44450492 B --- -- ----- wav 1.0000 crb2015-07-17.mk41v.sxr4.1644.s2t03.wav
6:26.15 68125724 B --- -- ----- wav 1.0000 crb2015-07-17.mk41v.sxr4.1644.s2t04.wav
13:16.61 140557916 B --- -- ----- wav 1.0000 crb2015-07-17.mk41v.sxr4.1644.s2t05.wav
10:32.27 111548348 B --- -- ----- wav 1.0000 crb2015-07-17.mk41v.sxr4.1644.s2t06.wav
15:41.09 166013612 B --- -- ----- wav 1.0000 crb2015-07-17.mk41v.sxr4.1644.s2t07.wav
5:51.22 61968188 B --- -- ----- wav 1.0000 crb2015-07-17.mk41v.sxr4.1644.s2t08.wav
9:46.47 103480988 B --- -- ----- wav 1.0000 crb2015-07-17.mk41v.sxr4.1644.s2t09.wav
1:42.55 18122204 B --- -- ----- wav 1.0000 crb2015-07-17.mk41v.sxr4.1644.s2t10.wav
9:34.59 101392412 B --- -- ----- wav 1.0000 crb2015-07-17.mk41v.sxr4.1644.s2t11.wav
162:47.01 1722901988 B 1.0000 (19 files)


Hide

Download

Download this show and more at:
My Microsoft OneDrive folder