2015-05-29 San Diego, CA

Notes from the Taper

View
Chris Robinson Brotherhood
Observatory North Park
San Diego, CA
May 29, 2015

Source : AKG c460b/ck1/a60 (ortf) > Littlebox > Tascam DR-60D (24/48)
Location: FOB/DFC 7.5' high / ~45' back
Transfer: Audacity (normalize,resample,dither) > cdwav (track) > TLH (flac,meta)

Tagged Using Foobar2000 Live Show Tagger

Recorded and Mastered by: Aaron Bowers (obaaron)


Setlist:

Set 1
01. Intro
02. There's a Good Rockin Tonight
03. Roan County Banjo
04. Badlands Here We Come
05. Oak Apple Day
06. Little Lizzie Mae >
07. Can You Hear Me
08. 100 Days of Rain
09. Meanwhile in the Gods
10. Big River


Set 2
01. Boppin the Blues
02. Jump the Turnstile
03. Get Out My Life Woman
04. Beggars Moon
05. I'm a Hog for You
06. Vibration and Light
07. Hard to Handle
08. Rosalee
09. encore crowd
10. The Music's Hot
11. Catfish John


Thanks to CRB and Observatory for allowing taping!

length expanded size cdr WAVE problems fmt ratio filename
1:09.54 12298652 B --- -- ---xx flac 0.4408 crb2015-05-29s1t01.flac
6:08.05 64927004 B --- -- ---xx flac 0.5863 crb2015-05-29s1t02.flac
8:07.68 86066780 B --- -- ---xx flac 0.5683 crb2015-05-29s1t03.flac
6:40.52 70682348 B --- -- ---xx flac 0.5546 crb2015-05-29s1t04.flac
7:33.23 79963340 B --- -- ---xx flac 0.5543 crb2015-05-29s1t05.flac
8:48.27 93202748 B --- -- ---xx flac 0.5873 crb2015-05-29s1t06.flac
5:18.37 56182268 B --- -- ---xx flac 0.5719 crb2015-05-29s1t07.flac
9:41.34 102568412 B --- -- ---xx flac 0.5519 crb2015-05-29s1t08.flac
13:19.47 141054188 B --- -- ---xx flac 0.5680 crb2015-05-29s1t09.flac
5:16.25 55801244 B --- -- ---xx flac 0.5889 crb2015-05-29s1t10.flac
6:36.03 69861500 B --- -- ---xx flac 0.5554 crb2015-05-29s2t01.flac
8:25.20 89129084 B --- -- ---xx flac 0.5601 crb2015-05-29s2t02.flac
9:59.15 105698924 B --- -- ---xx flac 0.5541 crb2015-05-29s2t03.flac
8:29.03 89794700 B --- -- ---xx flac 0.5579 crb2015-05-29s2t04.flac
9:09.55 96973004 B --- -- ---xx flac 0.5610 crb2015-05-29s2t05.flac
15:02.03 159119900 B --- -- ---xx flac 0.5692 crb2015-05-29s2t06.flac
6:50.33 72401660 B --- -- ---xx flac 0.5850 crb2015-05-29s2t07.flac
11:23.39 120572972 B --- -- ---xx flac 0.5562 crb2015-05-29s2t08.flac
1:37.35 17193164 B --- -- ---xx flac 0.4733 crb2015-05-29s2t09.flac
6:35.12 69706268 B --- -- ---xx flac 0.5363 crb2015-05-29s2t10.flac
8:01.55 84977804 B --- -- ---xx flac 0.5100 crb2015-05-29s2t11.flac
164:13.45 1738175964 B 0.5598 (21 files)

No errors occured.

crb2015-05-29s1t01.flac:b8e0b0eef62aebc7eba7c61465ae5034
crb2015-05-29s1t02.flac:2da231b20b34b1ad11e389f817c4878d
crb2015-05-29s1t03.flac:2bd6cf426826ee90c91f30bd1d9060dd
crb2015-05-29s1t04.flac:c062e94449c475c1d63636e8f7749c33
crb2015-05-29s1t05.flac:d4ec16e8e124a1038435e4509d0c93b4
crb2015-05-29s1t06.flac:f528d422767bc43a140ab97548e1d81e
crb2015-05-29s1t07.flac:6d2542093783a5b4f3efbe662d93cb88
crb2015-05-29s1t08.flac:061fb3d70853111aeccea71c017a0c22
crb2015-05-29s1t09.flac:28cb22d833106071de325fadcf88f346
crb2015-05-29s1t10.flac:9064bc94e3c84ea492f33fcaba383497
crb2015-05-29s2t01.flac:75bec9b21a28611d5eb79ddbe152bce8
crb2015-05-29s2t02.flac:dd51c610329266ccf865e83f20e414c4
crb2015-05-29s2t03.flac:5a9137caf349128e3a71a604aa9c9395
crb2015-05-29s2t04.flac:2865dfde117c74da2372a5ad552658aa
crb2015-05-29s2t05.flac:104f77954de727b91ee52cfc0b9c4b90
crb2015-05-29s2t06.flac:21be550f000bea4208d2be3ce0e5858e
crb2015-05-29s2t07.flac:27dece095ba0a1be5c13de22a3e399bd
crb2015-05-29s2t08.flac:1e3d8117137ac91c74d30c0d44ea1555
crb2015-05-29s2t09.flac:059e63bf04fc47b3cf4f1315de8efa1f
crb2015-05-29s2t10.flac:589fd527409b38a3995c242f001363f3
crb2015-05-29s2t11.flac:91928bf5101638d790c9d011a97f4f87

No errors occured.


Hide

Download

Download this show and more at:
My Microsoft OneDrive folder