2011-05-09 Los Angeles, CA

Notes from the Taper

View
The Chris Robinson Brotherhood
The Echoplex (1154 Glendale Boulevard, Los Angeles, CA 90026)
Monday, May 9, 2011



AKG c422 > s42 > Grace Design Lunatec V2 > Sonic AD2K+ > Tascam HD-P2

Location : ~5' left of center, ~20' back, ~8' superclamp (knob)/extension pole + offset arm/nanoclamp
Mic Config : Blumlein
Record Format : 24-bit, 96 kHz
Transfer : CF card > USB 2.0 card reader > PC
Edit, Tracking : normalize to 95%, fades, invert polarity (Samplitude)
Dither : POW-r #3 (Samplitude)
Resample : Ultra High 1 (Samplitude)
Final Format : 16-bit, 44.1 kHz
Verify : shntool.exe
Tagging : Live Show Tagger (foobar2000)



01. - set one -
02. Someday Past the Sunset
03. Poor Elijah/Tribute to Johnson (medley)
04. If Your Wheel Don't Roll
05. They Love Each Other
06. Tulsa Yesterday
07. Tomorrow Blues
08. Tough Mama
09. Beware
10. - set two -
11. Rosalee
12. Just Like Tom Thumb's Blues
13. Last Place That Love Lives
14. Roll Old Jeremiah
15. Sunday Sound
16. Vibration and Light Suite
17. Ride
18. I Ain't Hiding

19. Mississippi, You're On My Mind



length expanded size cdr WAVE problems fmt ratio filename
0:27.29 4831052 B --- -- ----- wav 1.0000 crb2011-05-09c422_01.wav
5:59.19 63372332 B --- -- ----- wav 1.0000 crb2011-05-09c422_02.wav
13:14.29 140129852 B --- -- ----- wav 1.0000 crb2011-05-09c422_03.wav
7:28.22 79078988 B --- -- ----- wav 1.0000 crb2011-05-09c422_04.wav
7:42.74 81670892 B --- -- ----- wav 1.0000 crb2011-05-09c422_05.wav
12:25.34 131498012 B --- -- ----- wav 1.0000 crb2011-05-09c422_06.wav
8:38.70 91539884 B --- -- ----- wav 1.0000 crb2011-05-09c422_07.wav
10:47.40 114224924 B --- -- ----- wav 1.0000 crb2011-05-09c422_08.wav
9:10.45 97125884 B --- -- ----- wav 1.0000 crb2011-05-09c422_09.wav
1:25.28 15059900 B --- -- ----- wav 1.0000 crb2011-05-09c422_10.wav
9:55.48 105070940 B --- -- ----- wav 1.0000 crb2011-05-09c422_11.wav
7:15.09 76755212 B --- -- ----- wav 1.0000 crb2011-05-09c422_12.wav
5:50.33 61817660 B --- -- ----- wav 1.0000 crb2011-05-09c422_13.wav
10:08.72 107420588 B --- -- ----- wav 1.0000 crb2011-05-09c422_14.wav
10:12.61 108100316 B --- -- ----- wav 1.0000 crb2011-05-09c422_15.wav
11:40.60 123621164 B --- -- ----- wav 1.0000 crb2011-05-09c422_16.wav
14:28.46 153223436 B --- -- ----- wav 1.0000 crb2011-05-09c422_17.wav
11:21.29 120196652 B --- -- ----- wav 1.0000 crb2011-05-09c422_18.wav
7:08.66 75654476 B --- -- ----- wav 1.0000 crb2011-05-09c422_19.wav
165:22.64 1750392164 B 1.0000 (19 files)



************************************************************************
* *
* ### FREE ### *
* *
* The musicians allowed this recording for FREE. PLEASE... *
* *
* - Only share this recording with others for FREE. *
* - Do NOT sell or trade this recording for profit of any kind. *
* *
* ### SUPPORT MUSICIANS ### *
* *
* Help ensure live recordings remain easily accessible and FREE by *
* supporting the musicians: *
* *
* - attend their live shows *
* - purchase their dry goods *
* - buy their studio releases *
* *
* For more information on the musicians, their tours, and studio *
* recordings: *
* *
* - http://www.chrisrobinsonbrotherhood.com/ *
* *
************************************************************************



++ recorded, transferred and seeded to bt.etree by macdaddy (May 15, 2011)

Hide

Download

Download this show and more at:
My Microsoft OneDrive folder