2015-02-14 Boston, MA

Notes from the Taper

View
Chris Robinson Brotherhood
2015-02-14
Paradise Rock Club
Boston, MA

mk41s were clamped to the balcony to the right of the sbd booth DIN

Schoeps mk41>nbob actives>Naiant pfas>Sonosax SX-R4 (24bit/96khz)

WAV>USB>Macbook Pro>Wave Editor(tracking,fades,resample(izotope)/dither(mbit+)to 16 bit/44.1k)>XAct(FLAC 8,ffp,fix sbe)

Recorded and transferred by Andy Murray

Set One

01. crowd
02. Saturday Night In Boston
03. Tomorrow Blues
04. Roan County Banjo
05. She Belongs To Me
06. Reflections On A Broken Mirror
07. Little Lizzie Mae
08. Silver Car
09. Clear Blue Sky & The Good Doctor
10. They Love Each Other
11. Vibration & Light Suite
12. Ride
13. Burn Slow
14. Sunday Sound
15. encore break
16. That’s How Strong My Love Is
17. It’s Only Rock’n’Roll

Chris Robinson (Lead vocals, guitar)
Neal Casal (guitar, vocals)
Adam Macdougall (keys, vocals)
Mark Dutton (bass, vocals)
Tony Leone (Drums)

http://chrisrobinsonbrotherhood.com/

https://www.facebook.com/CRBrotherhood

;flac fingerprints generated by xACT 2.35 on 2015-02-15 18:24:12 +0000

crb2015-02-14_mk41_1644_d1t01.flac:c02e0edb8154aba8baed1a165a5cb686
crb2015-02-14_mk41_1644_d1t02.flac:cfe18ed1ee427d05bc2856f4578e0d50
crb2015-02-14_mk41_1644_d1t03.flac:f566ac28d57c06b254fffd4d6cde8b12
crb2015-02-14_mk41_1644_d1t04.flac:0983a501aa294095c40c34ad552d9ef9
crb2015-02-14_mk41_1644_d1t05.flac:ebee8bb4172a727c2ba524d8764af607
crb2015-02-14_mk41_1644_d1t06.flac:f4c3cc4292fa082b28390a5fdcb4c6f8
crb2015-02-14_mk41_1644_d1t07.flac:cefd6467eab77d44fff8721991ab5ffd
crb2015-02-14_mk41_1644_d1t08.flac:fc8614eab875eb8fbc3226ca41392ef2
crb2015-02-14_mk41_1644_d1t09.flac:747d55733e7e5fda54dfa06b982bbcb4
crb2015-02-14_mk41_1644_d1t10.flac:818de9c4c2fcf5521538a09899d9dc32
crb2015-02-14_mk41_1644_d1t11.flac:86c2ef26732f1be3fec0abfc556d7bca
crb2015-02-14_mk41_1644_d1t12.flac:8995513e2ae45c7e03091c2b7ea5aae7
crb2015-02-14_mk41_1644_d1t13.flac:57fa72a44e11a867e6e03f2317c9eaf9
crb2015-02-14_mk41_1644_d1t14.flac:aa86196f1211d367d23739026cf2663a
crb2015-02-14_mk41_1644_d1t15.flac:a29344be71600b18c9593482f4e773f3
crb2015-02-14_mk41_1644_d1t16.flac:9ef2560d425ce2e7ef1cb8651ca1076a
crb2015-02-14_mk41_1644_d1t17.flac:a7f38d9c826fdbbb65f9d22e3c7a77ff

length expanded size cdr WAVE problems fmt ratio filename
1:39.59 17602412 B --- -- ----- wav 1.0000 crb2015-02-14_mk41_1644_d1t01.wav
4:59.53 52868300 B --- -- ----- wav 1.0000 crb2015-02-14_mk41_1644_d1t02.wav
8:46.59 92925212 B --- -- ----- wav 1.0000 crb2015-02-14_mk41_1644_d1t03.wav
8:02.63 85173020 B --- -- ----- wav 1.0000 crb2015-02-14_mk41_1644_d1t04.wav
8:54.18 94239980 B --- -- ----- wav 1.0000 crb2015-02-14_mk41_1644_d1t05.wav
8:03.13 85231820 B --- -- ----- wav 1.0000 crb2015-02-14_mk41_1644_d1t06.wav
8:42.08 92099660 B --- -- ----- wav 1.0000 crb2015-02-14_mk41_1644_d1t07.wav
8:06.15 85765724 B --- -- ----- wav 1.0000 crb2015-02-14_mk41_1644_d1t08.wav
8:12.31 86861756 B --- -- ----- wav 1.0000 crb2015-02-14_mk41_1644_d1t09.wav
7:55.68 83949980 B --- -- ----- wav 1.0000 crb2015-02-14_mk41_1644_d1t10.wav
14:13.33 150546860 B --- -- ----- wav 1.0000 crb2015-02-14_mk41_1644_d1t11.wav
15:44.28 166587500 B --- -- ----- wav 1.0000 crb2015-02-14_mk41_1644_d1t12.wav
8:27.21 89484236 B --- -- ----- wav 1.0000 crb2015-02-14_mk41_1644_d1t13.wav
12:33.12 132857468 B --- -- ----- wav 1.0000 crb2015-02-14_mk41_1644_d1t14.wav
2:43.71 28920236 B --- -- ----- wav 1.0000 crb2015-02-14_mk41_1644_d1t15.wav
5:38.00 59623244 B --- -- ----- wav 1.0000 crb2015-02-14_mk41_1644_d1t16.wav
5:52.41 62189276 B --- -- ----- wav 1.0000 crb2015-02-14_mk41_1644_d1t17.wav
138:35.68 1466926684 B 1.0000 (17 files)


Hide

Download

Download this show and more at:
My Microsoft OneDrive folder