2015-02-13 Boston, MA

Notes from the Taper

View
Chris Robinson Brotherhood
2015-02-13
Paradise Rock Club
Boston, MA

mk41s were clamped to the balcony to the right of the sbd booth DIN

Schoeps mk41>nbob actives>Naiant pfas>Sonosax SX-R4 (24bit/96khz)

WAV>USB>Macbook Pro>Wave Editor(tracking,fades,resample(izotope)/dither(mbit+)to 16 bit/44.1k)>XAct(FLAC 8,ffp,fix sbe)

Recorded and transferred by Andy Murray

Set One

01. intro
02. There’s A Good Rockin’ Tonight
03. Jump The Turnstile
04. Tornado
05. Star Or Stone
06. Meanwhile In The Gods…
07. Tulsa Yesterday
08. The Music’s Hot
09. Shore Power

Set Two

01. intro
02. Stranger In A Strange Land
03. Wheel Don’t Roll
04. Train Robbers
05. Beggars Moon
06. West L.A. Fadeaway
07. Vibration & Light
08. Hard To Handle
09. Rosalee
10. encore break
11. Driving Wheel
12. Bertha

Chris Robinson (Lead vocals, guitar)
Neal Casal (guitar, vocals)
Adam Macdougall (keys, vocals)
Mark Dutton (bass, vocals)
Tony Leone (Drums)

http://chrisrobinsonbrotherhood.com/

https://www.facebook.com/CRBrotherhood

;flac fingerprints generated by xACT 2.35 on 2015-02-14 18:18:46 +0000

crb2015-02-13_mk41_1644_d1t01.flac:ff4cd13c4fbb35a96bb3f66df96feb15
crb2015-02-13_mk41_1644_d1t02.flac:1bead362ff6b44905f7a5ef0b3a6b561
crb2015-02-13_mk41_1644_d1t03.flac:3f5385f422b1ad9e0324512d9d7407d3
crb2015-02-13_mk41_1644_d1t04.flac:04b451f2225d8c522781b769e41e1715
crb2015-02-13_mk41_1644_d1t05.flac:3e6a24278f5ea29be2f412f1b09556e2
crb2015-02-13_mk41_1644_d1t06.flac:a945e26dc97daf418a738c17f7a28323
crb2015-02-13_mk41_1644_d1t07.flac:84d359c006aa93ee0b0c1d35cce70fef
crb2015-02-13_mk41_1644_d1t08.flac:ee5c9a072c3804802f9402381a8e2a51
crb2015-02-13_mk41_1644_d1t09.flac:d7179cc46d1c149c4441a25f8f6e7aa0
crb2015-02-13_mk41_1644_d2t01.flac:8dbdbdf119d5c623f94a9f9d04845d6f
crb2015-02-13_mk41_1644_d2t02.flac:36d046924fab1d63126dcfe712312d0e
crb2015-02-13_mk41_1644_d2t03.flac:59b26b95b4b0acca2f3ae7450ef19218
crb2015-02-13_mk41_1644_d2t04.flac:eae01478e7e73fa2d9db0baa2138dcfc
crb2015-02-13_mk41_1644_d2t05.flac:972aabe2be27da5cf63eb4a79b7dafc9
crb2015-02-13_mk41_1644_d2t06.flac:dba9b0d8828ce0b89d5fee6fa081f690
crb2015-02-13_mk41_1644_d2t07.flac:a62884a5b54161969f5b89461b3c9a85
crb2015-02-13_mk41_1644_d2t08.flac:58cf9a3c2bdb732dd3826397a28eae6f
crb2015-02-13_mk41_1644_d2t09.flac:785f5953fc33870238f6f855c5d4c3a0
crb2015-02-13_mk41_1644_d2t10.flac:4488ae90659b3d7d64de8ff681f8966f
crb2015-02-13_mk41_1644_d2t11.flac:a57db0265ad0c68780cdd661d81e0d1f
crb2015-02-13_mk41_1644_d2t12.flac:764b3e8ed074cca190d7fb26757252b7

length expanded size cdr WAVE problems fmt ratio filename
1:31.37 16139468 B --- -- ----- wav 1.0000 crb2015-02-13_mk41_1644_d1t01.wav
6:25.08 67932860 B --- -- ----- wav 1.0000 crb2015-02-13_mk41_1644_d1t02.wav
8:26.13 89289020 B --- -- ----- wav 1.0000 crb2015-02-13_mk41_1644_d1t03.wav
7:33.31 79982156 B --- -- ----- wav 1.0000 crb2015-02-13_mk41_1644_d1t04.wav
11:18.21 119648636 B --- -- ----- wav 1.0000 crb2015-02-13_mk41_1644_d1t05.wav
16:31.09 174833612 B --- -- ----- wav 1.0000 crb2015-02-13_mk41_1644_d1t06.wav
14:21.06 151894556 B --- -- ----- wav 1.0000 crb2015-02-13_mk41_1644_d1t07.wav
6:55.29 73274252 B --- -- ----- wav 1.0000 crb2015-02-13_mk41_1644_d1t08.wav
6:10.30 65338604 B --- -- ----- wav 1.0000 crb2015-02-13_mk41_1644_d1t09.wav
1:17.56 13714556 B --- -- ----- wav 1.0000 crb2015-02-13_mk41_1644_d2t01.wav
7:00.44 74191532 B --- -- ----- wav 1.0000 crb2015-02-13_mk41_1644_d2t02.wav
5:52.71 62259836 B --- -- ----- wav 1.0000 crb2015-02-13_mk41_1644_d2t03.wav
8:56.35 94632764 B --- -- ----- wav 1.0000 crb2015-02-13_mk41_1644_d2t04.wav
8:57.23 94780940 B --- -- ----- wav 1.0000 crb2015-02-13_mk41_1644_d2t05.wav
10:22.16 109758476 B --- -- ----- wav 1.0000 crb2015-02-13_mk41_1644_d2t06.wav
13:12.26 139769996 B --- -- ----- wav 1.0000 crb2015-02-13_mk41_1644_d2t07.wav
8:02.44 85128332 B --- -- ----- wav 1.0000 crb2015-02-13_mk41_1644_d2t08.wav
10:41.50 113190044 B --- -- ----- wav 1.0000 crb2015-02-13_mk41_1644_d2t09.wav
1:47.13 18905420 B --- -- ----- wav 1.0000 crb2015-02-13_mk41_1644_d2t10.wav
8:50.49 93607292 B --- -- ----- wav 1.0000 crb2015-02-13_mk41_1644_d2t11.wav
7:42.56 81628556 B --- -- ----- wav 1.0000 crb2015-02-13_mk41_1644_d2t12.wav
171:56.67 1819900908 B 1.0000 (21 files)


Hide

Download

Download this show and more at:
My Microsoft OneDrive folder