2014-06-04 Stowe, VT

Notes from the Taper

View
Chris Robinson Brotherhood
2014-06-04
The Rusty Nail
Stowe, VT

mk4s were just right of center 20' from stage

MK4s were ORTF

Source:
Schoeps mk4>KC5>CMC6>Sonosax SX-R4 (24bit/96khz)

Lineage:
WAV>USB>Macbook Pro>Wave Editor(tracking,fades,resample(izotope)/dither(mbit+)to 16 bit/44.1k)>XAct(FLAC 8,ffp,fix sbe)

Recorded and transferred by Andy Murray

2 Sets

Set 1:

01. crowd
02. Let’s Go, Let’s Go, Let’s Go
03. Tomorrow Blues
04. Shore Power
05. About A Stranger
06. Meanwhile In The Gods…
07. Little Lizzie Mae
08. Appaloosa
09. Poor Elijah *

Set 2:

01. crowd
02. Hello L.A.
03. Beggars Moon
04. Clear Blue Sky & TGD
05. Serves Me Right To Suffer
06. Vibration & Light
07. Ride
08. Last Place That Loves Lives
09. Rosalee
10. encore break

encore:
11. Girl I Love You
12. Older Guys

* - Robert Johnson

;flac fingerprints generated by xACT 2.28 on 2014-06-05 07:36:14 +0000

crb2014-06-04_mk4_1644_d1t01.flac:3de3c836d154645f9e6e160739ca2849
crb2014-06-04_mk4_1644_d1t02.flac:4c74864db7376c63b91a036b3707dc90
crb2014-06-04_mk4_1644_d1t03.flac:133e23ef019c34eee0be9bf1e1d5bdca
crb2014-06-04_mk4_1644_d1t04.flac:c0a6a113a293b68730f7ad1d4ccf18cd
crb2014-06-04_mk4_1644_d1t05.flac:965264de6d8a05c686fa0891aef4313e
crb2014-06-04_mk4_1644_d1t06.flac:5d67c1c857af3b6ef5689adb5f94c5ac
crb2014-06-04_mk4_1644_d1t07.flac:b92687473acdc74351dc040f52860e47
crb2014-06-04_mk4_1644_d1t08.flac:ae4a720464c9870c3652841238d0e362
crb2014-06-04_mk4_1644_d1t09.flac:cd1d42194e7f825f9cc654ff427eeb8b
crb2014-06-04_mk4_1644_d2t01.flac:0ac993600b228c10b31af8efc9b9979c
crb2014-06-04_mk4_1644_d2t02.flac:0c864cfd8bd69bf1e90291bfdbda8ecc
crb2014-06-04_mk4_1644_d2t03.flac:9e628c16c35ce66005f04ce252753615
crb2014-06-04_mk4_1644_d2t04.flac:29afe7494a72f57c3685851992030f98
crb2014-06-04_mk4_1644_d2t05.flac:9204fcf90759e3312a68316c4935f236
crb2014-06-04_mk4_1644_d2t06.flac:501ef0d3e68064ac95b7b69d74705c47
crb2014-06-04_mk4_1644_d2t07.flac:da2ebb500caea50e965b9abd5b61ce17
crb2014-06-04_mk4_1644_d2t08.flac:3ca06f608f33f53b3e05abe23f6c206e
crb2014-06-04_mk4_1644_d2t09.flac:1c46126e8c848b64cf0af7f88d36a75f
crb2014-06-04_mk4_1644_d2t10.flac:6f8b384750d3d514b9594db3bbe32433
crb2014-06-04_mk4_1644_d2t11.flac:7a549c48dd3ffd7cf729ca646f15f754
crb2014-06-04_mk4_1644_d2t12.flac:d6b84e9defcb383cefdd00b3a82f3663

length expanded size cdr WAVE problems fmt ratio filename
1:29.50 15817244 B --- -- ----- wav 1.0000 crb2014-06-04_mk4_1644_d1t01.wav
6:08.38 65004620 B --- -- ----- wav 1.0000 crb2014-06-04_mk4_1644_d1t02.wav
8:41.13 91935020 B --- -- ----- wav 1.0000 crb2014-06-04_mk4_1644_d1t03.wav
6:12.38 65710220 B --- -- ----- wav 1.0000 crb2014-06-04_mk4_1644_d1t04.wav
7:31.39 79648172 B --- -- ----- wav 1.0000 crb2014-06-04_mk4_1644_d1t05.wav
14:47.42 156565628 B --- -- ----- wav 1.0000 crb2014-06-04_mk4_1644_d1t06.wav
8:43.16 92294876 B --- -- ----- wav 1.0000 crb2014-06-04_mk4_1644_d1t07.wav
6:20.08 67050860 B --- -- ----- wav 1.0000 crb2014-06-04_mk4_1644_d1t08.wav
15:19.14 162144572 B --- -- ----- wav 1.0000 crb2014-06-04_mk4_1644_d1t09.wav
1:32.20 16275884 B --- -- ----- wav 1.0000 crb2014-06-04_mk4_1644_d2t01.wav
6:35.42 69776828 B --- -- ----- wav 1.0000 crb2014-06-04_mk4_1644_d2t02.wav
8:25.01 89084396 B --- -- ----- wav 1.0000 crb2014-06-04_mk4_1644_d2t03.wav
8:09.35 86341964 B --- -- ----- wav 1.0000 crb2014-06-04_mk4_1644_d2t04.wav
8:21.62 88522268 B --- -- ----- wav 1.0000 crb2014-06-04_mk4_1644_d2t05.wav
14:41.12 155436668 B --- -- ----- wav 1.0000 crb2014-06-04_mk4_1644_d2t06.wav
15:48.23 167281340 B --- -- ----- wav 1.0000 crb2014-06-04_mk4_1644_d2t07.wav
6:11.16 65482076 B --- -- ----- wav 1.0000 crb2014-06-04_mk4_1644_d2t08.wav
10:31.13 111339020 B --- -- ----- wav 1.0000 crb2014-06-04_mk4_1644_d2t09.wav
2:33.42 27088028 B --- -- ----- wav 1.0000 crb2014-06-04_mk4_1644_d2t10.wav
3:45.05 39701804 B --- -- ----- wav 1.0000 crb2014-06-04_mk4_1644_d2t11.wav
4:18.66 45666476 B --- -- ----- wav 1.0000 crb2014-06-04_mk4_1644_d2t12.wav
166:06.70 1758167964 B 1.0000 (21 files)


Hide

Download

Download this show and more at:
My Microsoft OneDrive folder