2014-05-23 Solana Beach, CA

Notes from the Taper

View
Chris Robinson Brotherhood
The Belly Up Tavern
Solana Beach, CA
May 23, 2014 (Fri.)

Source: AKG ck61/Naiant AKG Couplings (ORTF) > Naiant Tinybox (+18db) > Tascam DR-680 (24/48)
Mic location: FOB 8' high / ~15' back / 8' right of center
Transfer: Audacity (normalize,resample,dither) > cdwav (track) > Traders Little Helper (flac/meta)
Tagging: Foobar2000 Live Show Tagger

Recorded and Mastered by Aaron Bowers (obaaron)

Setlist:

- Set One -
01. Jump the Turnstile Let's Go, Let's Go, Let's Go
02. Shore Power
03. Tomorrow Blues
04. Crash on the Levee Eagles on the Highway
05. Badlands Here We Come
06. Vibration and Light Suite Appaloosa
07. West L.A. Fadeaway Star or Stone
08. About a Stranger
09. Got Love if You Want it

- Set Two -
01. Try Rock & Roll
02.
03. Sunday Sound
04. Clear Blue Sky
05. Meanwhile In The Gods
06. Loves Made a Fool of You
07. Ride
08. I Ain't Hiding
09. Rosalee
10. - encore -
11. Appaloosa
12. Betty & Dupree

Chris Robinson - Vocal, Guitar
Neal Casal - Guitar, Vocals
Adam McDougal - Keyboards, Vocals
Mark Dutton - Bass, Vocals
George Sluppick - Drums

length expanded size cdr WAVE problems fmt ratio filename
9:42.59 102803612 B --- -- ---xx flac 0.5062 crb2014-05-23s1t01.flac
6:09.68 65251580 B --- -- ---xx flac 0.5782 crb2014-05-23s1t02.flac
8:03.63 85349420 B --- -- ---xx flac 0.5307 crb2014-05-23s1t03.flac
7:18.53 77387900 B --- -- ---xx flac 0.5461 crb2014-05-23s1t04.flac
6:02.08 63875660 B --- -- ---xx flac 0.5155 crb2014-05-23s1t05.flac
14:01.47 148462988 B --- -- ---xx flac 0.5479 crb2014-05-23s1t06.flac
9:25.53 99790700 B --- -- ---xx flac 0.5319 crb2014-05-23s1t07.flac
7:05.68 75129980 B --- -- ---xx flac 0.5332 crb2014-05-23s1t08.flac
8:19.23 88077740 B --- -- ---xx flac 0.5233 crb2014-05-23s1t09.flac
5:46.72 61203788 B --- -- ---xx flac 0.5061 crb2014-05-23s2t01.flac
8:19.41 88120076 B --- -- ---xx flac 0.5142 crb2014-05-23s2t02.flac
12:00.40 127102124 B --- -- ---xx flac 0.5107 crb2014-05-23s2t03.flac
8:36.15 91057724 B --- -- ---xx flac 0.4900 crb2014-05-23s2t04.flac
13:55.27 147357548 B --- -- ---xx flac 0.5107 crb2014-05-23s2t05.flac
11:37.07 122967308 B --- -- ---xx flac 0.5117 crb2014-05-23s2t06.flac
15:00.28 158825900 B --- -- ---xx flac 0.5380 crb2014-05-23s2t07.flac
9:42.42 102763628 B --- -- ---xx flac 0.5024 crb2014-05-23s2t08.flac
11:30.27 121779548 B --- -- ---xx flac 0.5191 crb2014-05-23s2t09.flac
1:50.53 19528700 B --- -- ---xx flac 0.4032 crb2014-05-23s2t10.flac
6:00.50 63621644 B --- -- ---xx flac 0.4634 crb2014-05-23s2t11.flac
6:15.24 66206492 B --- -- ---xx flac 0.5406 crb2014-05-23s2t12.flac
186:45.43 1976664060 B 0.5202 (21 files)

No errors occured.

crb2014-05-23s1t01.flac:3c9cf73c78fbef9e18ed7810c62130c2
crb2014-05-23s1t02.flac:1bfb5f5ab80b68d2ef2357753a25e5a2
crb2014-05-23s1t03.flac:237bf810c27f467a34a9868b1fc78681
crb2014-05-23s1t04.flac:b1eb043cc8b2fe24a593b117f896c09f
crb2014-05-23s1t05.flac:6055b8ff91fca9672f9a452915341edb
crb2014-05-23s1t06.flac:46967276857ec53be9f6009e63c0c7ee
crb2014-05-23s1t07.flac:22619236b286a59ab6ac903dcf0f63b6
crb2014-05-23s1t08.flac:cc6c66bd88ea8bd1d2922d68ffcd5626
crb2014-05-23s1t09.flac:2458b1a3f9ddc8e9e32a07e65518ae2e
crb2014-05-23s2t01.flac:7716fe752fd556b8692cf13a55953cf5
crb2014-05-23s2t02.flac:06c0286aed453d76bbeb3fa4d0cbcafc
crb2014-05-23s2t03.flac:61d2db11fb0aeb7bbf899e847389ea2c
crb2014-05-23s2t04.flac:09dc2435d2a41981059324fec83b41c4
crb2014-05-23s2t05.flac:8daa72962d9d7de5dd64eed710136676
crb2014-05-23s2t06.flac:9b06b3dc7abc234627f437027469cbd8
crb2014-05-23s2t07.flac:60672c3c2b9b4c1986407f5f7fd67bda
crb2014-05-23s2t08.flac:465e2c001fe991b4dc56cb2467d1df02
crb2014-05-23s2t09.flac:d88515af8762c251792aff451011de4c
crb2014-05-23s2t10.flac:599605592d8cc5a182821a13eb191a96
crb2014-05-23s2t11.flac:697923546c9c330dd7aa0df7614002b3
crb2014-05-23s2t12.flac:6086908045fa99fb45d8c43c6ee102b4

No errors occured.


Hide

Download

Download this show and more at:
My Microsoft OneDrive folder