2012-12-07 Los Angeles, CA

Notes from the Taper

View
Chris Robinson Brotherhood
The El Rey Theater (5515 Wilshire Boulevard, Los Angeles, CA 90036)

Friday, December 7, 2012







AKG c422 > s42 > Grace Design Lunatec V2 > Sonic AD2K+ > Roland R-44 (S/PDIF/digital input)




Location: ~Center, ~100' back, ~12' high, Matthellini clamp/magic finger + Manfrotto 099b extension pole, extension arm/nanoclamp

Mic Config: X/Y (hypercardioid)

Record Format: 24-bit, 96 kHz

Transfer: SDHC card > USB 2.0 card reader > MacBook Air
Edits and Tracking: Waves C6, Waves H-EQ, MannyM Triple D, change gain, quadratic (linear) fades (Wave Editor 1.5.7)
Resample: Ultra-steep, Linear Phase (Izotope ReSampler/Wave Editor 1.5.7)

Dither: Ultra Shape, High Amount (MBIT+/Wave Editor 1.5.7)

Final Format: 16-bit, 44.1 kHz

Encode, Verify, Tagging, ReplayGain: xACT 2.25







01. - Set One -
02. Try Rock ’n’ Roll
03. Tomorrow Blues >>
04. Mother of Stone
05. Star or Stone
06. Brown Eyed Women
07. Tornado
08. Tough Mama >>
09. Little Lizzie Mae
10. Beware
11. - Set Two -
12. I’m Ready
13. Meanwhile in the Gods…
14. 100 Days of Rain
15. Someday Past the Sunset
16. Sunday Sound
17. Vibration & Light Suite >>
18. Ride
19. Rosalee

20. Badlands Here We Come
21. Got Love







length expanded size cdr WAVE problems fmt ratio filename
0:11.37 2027468 B --- -- ----- wav 1.0000 crb2012-12-07c422t01.wav
4:49.29 51047852 B --- -- ----- wav 1.0000 crb2012-12-07c422t02.wav
7:31.56 79688156 B --- -- ----- wav 1.0000 crb2012-12-07c422t03.wav
8:11.10 86635964 B --- -- ----- wav 1.0000 crb2012-12-07c422t04.wav
10:36.30 112261004 B --- -- ----- wav 1.0000 crb2012-12-07c422t05.wav
5:43.13 60535820 B --- -- ----- wav 1.0000 crb2012-12-07c422t06.wav
5:46.39 61126172 B --- -- ----- wav 1.0000 crb2012-12-07c422t07.wav
10:02.65 106345724 B --- -- ----- wav 1.0000 crb2012-12-07c422t08.wav
8:53.21 94070636 B --- -- ----- wav 1.0000 crb2012-12-07c422t09.wav
8:25.43 89183180 B --- -- ----- wav 1.0000 crb2012-12-07c422t10.wav
0:42.04 7418252 B --- -- ----- wav 1.0000 crb2012-12-07c422t11.wav
4:46.62 50596268 B --- -- ----- wav 1.0000 crb2012-12-07c422t12.wav
6:09.09 65112812 B --- -- ----- wav 1.0000 crb2012-12-07c422t13.wav
7:58.60 84460364 B --- -- ----- wav 1.0000 crb2012-12-07c422t14.wav
7:30.25 79438844 B --- -- ----- wav 1.0000 crb2012-12-07c422t15.wav
11:48.07 124907708 B --- -- ----- wav 1.0000 crb2012-12-07c422t16.wav
11:26.35 121092764 B --- -- ----- wav 1.0000 crb2012-12-07c422t17.wav
13:18.66 140922476 B --- -- ----- wav 1.0000 crb2012-12-07c422t18.wav
13:12.18 139751180 B --- -- ----- wav 1.0000 crb2012-12-07c422t19.wav
6:09.01 65093996 B --- -- ----- wav 1.0000 crb2012-12-07c422t20.wav
7:59.44 84599132 B --- -- ----- wav 1.0000 crb2012-12-07c422t21.wav
161:12.74 1706315772 B 1.0000 (21 files)







### FREE ###

The musicians allowed this recording for FREE.

PLEASE...

- Only share this recording with others for FREE.

- Do NOT sell or trade this recording for profit of any kind.



### SUPPORT MUSICIANS ###

Help ensure live recordings remain easily accessible and FREE by supporting the musicians:

- attend their live shows

- purchase their dry goods

- buy their studio releases



For more information on the musicians, their tours, and

studio recordings visit http://www.chrisrobinsonbrotherhood.com/







++ recorded, transferred and uploaded by macdaddy (May 10, 2014)

Hide

Download

Download this show and more at:
My Microsoft OneDrive folder